<?xml version="1.0" standalone="no"?>
<!DOCTYPE svg PUBLIC "-//W3C//DTD SVG 1.1//EN" "http://www.w3.org/Graphics/SVG/1.1/DTD/svg11.dtd">
<svg xmlns="http://www.w3.org/2000/svg">
<metadata>Copyright (C) 2023 by original authors @ fontello.com</metadata>
<defs>
<font id="icons" horiz-adv-x="1000" >
<font-face font-family="icons" font-weight="400" font-stretch="normal" units-per-em="1000" ascent="850" descent="-150" />
<missing-glyph horiz-adv-x="1000" />
<glyph glyph-name="7day" unicode="&#xe800;" d="M995 392c0 253-222 458-495 458s-495-205-495-458 222-457 495-457c43 0 87 6 131 16 41-33 84-67 138-90 10-7 23-11 34-11 16 0 30 4 43 14 24 17 37 44 34 74l-21 138c89 84 136 198 136 316z m-205-252c-17-17-27-41-24-64l14-122c-37 21-71 44-97 71-14 14-31 20-51 20-7 0-14 0-20-3-37-10-74-14-112-14-218 0-400 162-400 360 0 202 181 364 400 364s401-161 401-364c-4-90-41-181-111-248z m-445 454v-77-54h74v54h132c-27-54-54-111-78-172-23-60-47-125-67-189h97c17 68 41 132 64 192 24 61 51 118 84 179v67h-232c0 0-74 0-74 0z" horiz-adv-x="1000" />

<glyph glyph-name="account-o" unicode="&#xe801;" d="M828 237c-44 53-102 88-172 103 51 45 84 109 84 182 0 132-108 240-240 240s-240-108-240-240c0-73 33-137 84-182-70-15-129-50-172-103-55-67-84-158-84-265 0-18 15-34 34-34 19 0 34 16 34 34 0 194 102 309 274 309h138c172 0 275-115 275-309 0-18 15-34 34-34 18 0 34 16 34 34 1 107-28 198-83 265z m-500 285c0 94 77 171 172 171 95 0 172-77 172-171s-77-172-172-172c-95 0-172 77-172 172z" horiz-adv-x="1000" />

<glyph glyph-name="arrow-down" unicode="&#xe802;" d="M0 559c0 15 5 30 19 44 25 24 64 24 88 0l393-394 394 394c24 24 63 24 88 0 24-24 24-63 0-87l-409-408c-19-20-43-30-73-30s-53 10-72 30l-409 408c-9 10-19 24-19 43z m486-364l0 0 0 0z" horiz-adv-x="1000" />

<glyph glyph-name="arrow-left" unicode="&#xe803;" d="M709 850c15 0 30-5 44-19 24-25 24-63 0-88l-394-393 394-394c24-24 24-63 0-88-24-24-63-24-87 0l-408 409c-20 19-30 44-30 73s10 53 30 72l408 409c10 9 24 19 43 19z m-364-486l0 0 0 0z" horiz-adv-x="1000" />

<glyph glyph-name="arrow-right" unicode="&#xe804;" d="M291-150c-15 0-29 5-44 19-24 25-24 63 0 88l394 393-394 394c-25 24-25 63 0 88s63 24 87 0l408-409c20-19 29-43 29-73s-9-53-29-72l-408-409c-9-9-24-19-43-19z m364 486l0 0 0 0z" horiz-adv-x="1000" />

<glyph glyph-name="arrow-up" unicode="&#xe805;" d="M1000 141c0-15-5-29-19-44-25-24-63-24-88 0l-393 394-394-394c-24-24-63-24-87 0-25 24-25 63 0 87l408 409c19 19 44 29 73 29s53-10 72-29l409-409c9-9 19-24 19-43z m-486 364l0 0 0 0z" horiz-adv-x="1000" />

<glyph glyph-name="bell-o" unicode="&#xe806;" d="M791 281c-17 34-33 65-33 180 0 130-96 238-221 256v39c0 21-17 37-37 37s-37-16-37-37v-39c-125-18-222-126-222-256 0-113-16-146-33-181-20-42-41-86-41-225 0-21 17-37 37-37h185c0-62 49-111 111-111s110 49 110 111h185c20 0 37 16 37 37 0 142-21 185-41 226z m-291-300c-20 0-37 16-37 37h74c0-21-17-37-37-37z m-258 111c3 93 18 124 33 156 20 41 40 84 40 213 0 102 83 184 185 184s184-82 184-184c0-132 21-173 40-213 16-32 31-61 34-157h-516z" horiz-adv-x="1000" />

<glyph glyph-name="byjolab-logo" unicode="&#xe807;" d="M342 201c-78 0-124 67-124 156 0 94 41 155 124 155 80 0 121-76 121-155 0-78-33-156-121-156m13 388c-50 0-103-26-131-69h-1v226h-98v-609h91v62h2c29-59 92-74 152-74 130 0 191 111 191 231 0 129-67 234-206 233m1847-386c-35 0-89 12-89 56 0 51 38 68 79 74 43 7 88 6 119 26l1-72c0-61-67-84-110-84m228-2c-18 0-23 9-23 34v226c0 93-91 128-177 128-97 0-194-34-200-147h97c5 48 43 71 98 71 38 0 91-8 91-60 0-58-63-49-132-63-81-9-170-27-170-137 0-85 72-128 151-128 52 0 114 15 153 54 7-40 35-54 75-54 15 0 46 6 61 11v67c-5 0-9-1-14-1 0-1-10-1-10-1m271 0c-78 0-123 67-123 156 0 94 41 155 123 155 81 0 122-76 122-155 0-78-33-156-122-156m14 388c-50 0-103-26-131-69h-2v226h-98v-610h92v61h2c29-58 93-73 152-73 130 0 191 111 191 230 0 130-67 235-206 235m-1144-386c-87 0-125 79-125 155 0 77 38 156 125 156 87 0 125-79 125-156 0-77-38-157-125-155m0 387c-140 0-223-97-223-232 0-135 82-233 223-233 141 0 223 97 223 233 0 135-83 232-223 232m276-453h97v609h-97z m-947 441l-112-329h-1l-116 329h-107l168-441-10-33c-13-37-25-62-69-62-16 0-29 4-46 7v-83c21-3 44-4 67-4 102 0 124 72 156 151l172 465z m289-421h-1c0-76-17-117-85-117-66 0-84 41-84 110v32h-107v-32c0-112 52-196 182-196 174 0 200 105 200 211l1 413h-106z m52 482c30 0 54 24 54 53 0 30-24 54-54 54-29 0-53-24-53-54 0-29 24-53 53-53" horiz-adv-x="3046" />

<glyph glyph-name="cart" unicode="&#xe808;" d="M885-109l-9 723c0 17-17 31-35 31h-184c-30 100-87 205-162 205s-127-96-162-206h-183c-23 0-31-13-35-31v-726c0-22 17-35 35-35h700l0 0c26-9 39 17 35 39l0 0z m-381 885c22 0 61-62 88-132h-171c22 70 57 132 83 132l0 0z m-306-859l-9 653h136c-9-44-18-93-18-119 0-22 18-34 35-34s35 17 35 34c0 31 8 79 17 119h215c9-40 18-84 18-119 0-22 17-34 34-34 22 0 35 17 35 34 0 27-4 71-17 119h127v-657h-609v4z" horiz-adv-x="1000" />

<glyph glyph-name="cart-o" unicode="&#xe809;" d="M887-35l-35 563c-1 19-17 33-35 33h-105v35c0 97-79 176-176 176h-71c-97 0-175-79-175-176v-35h-107c-18 0-34-14-35-33l-35-563c0-10 3-19 10-26 6-7 15-12 25-12h705c9 0 19 5 25 12 6 7 10 16 9 26z m-528 631c0 59 48 106 106 106h70c58 0 105-48 105-106v-35h-281v35z m-174-598l31 493h73v-35c0-20 16-35 35-35s35 16 35 35v35h281v-35c0-20 16-35 35-35s35 16 35 35v35h73l31-493h-629z" horiz-adv-x="1000" />

<glyph glyph-name="category-cart" unicode="&#xe80a;" d="M885-109l-9 723c0 17-17 31-35 31h-184c-30 100-87 205-162 205s-127-96-162-206h-183c-23 0-31-13-35-31v-726c0-22 17-35 35-35h700l0 0c26-9 39 17 35 39l0 0z m-381 885c22 0 61-62 88-132h-171c22 70 57 132 83 132l0 0z m-306-859l-9 653h136c-9-44-18-93-18-119 0-22 18-34 35-34s35 17 35 34c0 31 8 79 17 119h215c9-40 18-84 18-119 0-22 17-34 34-34 22 0 35 17 35 34 0 27-4 71-17 119h127v-657h-609v4h1z" horiz-adv-x="1000" />

<glyph glyph-name="category-heart" unicode="&#xe80b;" d="M500-104l-410 365c-103 94-121 271-38 388 40 57 98 93 162 102 10 2 21 2 28 2 54 0 108-21 146-59l110-97 111 98c49 43 111 63 174 57l1 0c65-9 123-45 164-103 83-119 64-295-44-392l0 0-404-361z m-347 424l347-309 347 310c75 68 90 195 31 279-26 37-63 61-104 66-40 4-77-8-108-36l-167-149-170 152c-23 22-54 35-86 35-5 0-10 0-13 0l-3-1c-41-5-79-29-105-67-58-82-45-211 27-275l4-5z" horiz-adv-x="1000" />

<glyph glyph-name="category-heart-o" unicode="&#xe80c;" d="M500-104l-410 365c-103 94-121 271-38 388 40 57 98 93 162 102 10 2 21 2 28 2 54 0 108-21 146-59l110-97 111 98c49 43 111 63 174 57h1c65-9 123-45 164-103 83-119 64-295-44-392l0 0-404-361z" horiz-adv-x="1000" />

<glyph glyph-name="category-soldout" unicode="&#xe80d;" d="M938-63l-55 46-29 546c0 17-16 34-33 34h-104v33c0 96-79 175-175 175h-71c-104 0-179-79-179-175v-33h-71l-125 108c-17 12-38 12-50-4-13-13-13-38 4-50l100-88c0 0 0 0 0-4l-37-558c0-9 4-21 8-25s17-13 25-13h696l50-42c16-12 37-12 50 5 12 12 12 33-4 45z m-580 659c0 58 46 104 105 104h70c59 0 105-46 105-104v-33h-280v33z m0-142v38h284v-34c0-20 16-33 33-33 21 0 33 17 33 33v34h71l29-442-450 396c0 4 0 4 0 8z m-170-458l29 479 546-475h-575z" horiz-adv-x="1000" />

<glyph glyph-name="clock" unicode="&#xe80e;" d="M500 850c-275 0-500-225-500-500s225-500 500-500 500 225 500 500-225 500-500 500z m319-651c-13 7-30 4-37-10s-4-30 10-37l47-27c-30-47-74-87-121-117l-23 37c-4 3-7 7-13 7-4 0-4 0-7-4-3-4-7-7-7-10 0-4 0-7 0-10l24-37c-50-27-104-44-165-48v54c0 14-13 27-27 27-13 0-26-13-26-27v-54c-57 4-115 21-165 48l24 37c3 3 3 6 0 10 0 3-4 6-7 10-4 0-4 4-7 4-6 0-10-4-13-7l-23-37c-51 30-91 70-125 121l48 27c13 6 16 23 10 37-7 13-24 16-37 10l-44-34c-23 51-40 104-40 165h43c4 0 7 0 11 3 3 4 3 7 3 10 0 7-6 14-13 14h-44c4 60 17 117 40 167l48-27c3-3 10-3 13-3 10 0 20 3 23 13 7 13 4 30-10 37l-47 30c32 47 73 87 120 118l23-37c0-4 4-4 7-7 3-3 6-3 13 0 4 4 7 7 7 10s0 7 0 10l-23 37c50 27 104 44 164 47v-54c0-13 13-27 27-27 13 0 27 14 27 27v54c57-3 114-20 164-47l-23-37c-3-7 0-17 7-20 3 0 3-4 6-4 7 0 10 4 13 7l24 37c47-27 87-67 121-114l-48-27c-13-7-16-24-10-37 4-11 14-14 24-14 3 0 10 0 13 4l47 27c23-50 40-104 40-165h-43c-4 0-7 0-11-3-3-4-3-7-3-10 0-7 3-10 7-14 3 0 3-3 6-3l0 0h44c-4-60-17-117-40-168l-46 31z m-125 185h-144c-3 6-10 13-16 16v212c0 17-14 33-34 33s-33-13-33-33v-212c-17-10-27-30-27-50 0-33 27-60 60-60 20 0 40 10 50 27h144c17 0 34 13 34 33s-17 34-34 34z" horiz-adv-x="1000" />

<glyph glyph-name="color-google-mdi" unicode="&#xe80f;" d="M775 42c79 75 121 179 121 300 0 29-4 58-8 83h-388v-158h221c-8-50-38-92-79-121l0 0c-38-25-84-38-138-38-108 0-196 71-229 167-8 25-12 50-12 75 0 25 4 54 12 79v4c33 92 121 167 229 167 59 0 113-21 159-62l116 116c-71 67-162 109-275 109-158 0-300-92-366-225l4-5h-4c-30-54-42-116-42-183 0-67 17-129 42-183l0 0c66-138 208-225 366-225 109 0 200 37 267 96h0c0 0 4 4 4 4 0 0 0 0 0 0l0 0z" horiz-adv-x="1000" />

<glyph glyph-name="color-facebook-mdi" unicode="&#xe810;" d="M500 754c-225 0-404-179-404-404s179-404 404-404 404 179 404 404-179 404-404 404z m167-179h-67c-42 0-54-37-54-83v-59h121l-17-104h-104v-291c-17-5-38-5-54-5-21 0-42 0-63 5v291h-96v104h100v71c0 117 59 167 155 167 45 0 70-4 83-4l-4-92 0 0z" horiz-adv-x="1000" />

<glyph glyph-name="color-line-mdi" unicode="&#xe811;" d="M925 408c0 192-192 346-425 346-233 0-425-154-425-346 0-170 150-312 354-337 13-4 34-8 38-21 4-12 4-29 0-37 0 0-4-30-4-38 0-13-9-42 37-21s246 142 333 246l0 0c63 67 92 133 92 208z m-575-100c0-4-4-8-8-8h-117l0 0c-4 0-4 0-4 4l0 0 0 0-4 4 0 0v184c0 4 4 8 8 8h29c4 0 9-4 9-8v-146h79c4 0 8-4 8-8v-30z m71 0c0-4-4-8-8-8h-30c-4 0-8 4-8 8v184c0 4 4 8 8 8h30c4 0 8-4 8-8 0 0 0-184 0-184z m204 0c0-4-4-8-8-8h-29c0 0 0 0-5 0l0 0 0 0 0 0 0 0 0 0 0 0 0 0 0 0c0 0 0 0-4 0l-83 113v-105c0-4-4-8-8-8h-30c-4 0-8 4-8 8v184c0 4 4 8 8 8h30l0 0 0 0 0 0 0 0 0 0 0 0 0 0 0 0 0 0 0 0 0 0 0 0 0 0 0 0 0 0 0 0 0 0 0 0 0 0 83-112v104c0 4 4 8 8 8h29c17 0 17-4 17-8v-184z m167 155c0-5-4-9-9-9h-79v-29h79c5 0 9-4 9-8v-29c0-5-4-9-9-9h-79v-29h79c5 0 9-4 9-8v-34c0-4-4-8-9-8h-116l0 0c-4 0-4 0-4 4l0 0 0 0-5 4 0 0v184l0 0c0 4 0 4 5 4l0 0 0 0 4 4 0 0h116c5 0 9-4 9-8v-29z" horiz-adv-x="1000" />

<glyph glyph-name="deliver" unicode="&#xe812;" d="M732 647h-108v57c0 20-17 34-34 34h-556c-20 0-34-17-34-34v-424c0-20 17-34 34-34h51v-152c0-20 16-34 34-34h50c17-58 68-98 129-98s115 44 129 98h230c17-58 68-98 129-98 61 0 115 44 129 98h51c20 0 34 17 34 34v278c0 149-115 275-268 275z m207-271h-153v193c85-24 150-102 153-193z m-868 295h485v-58l0 0 0 0v-292h-27l0 0h-407l0 0h-51v350z m234-645c-34 0-64 27-64 65 0 37 27 64 64 64 34 0 65-27 65-64 0-37-31-65-65-65z m488 0c-34 0-64 27-64 65 0 37 27 64 64 64 34 0 65-27 65-64 0-37-31-65-65-65z m129 102c-17 58-68 99-129 99s-115-44-128-99h-231c-17 58-68 99-129 99s-115-44-129-99h-16v119h430c20 0 34 17 34 34v294h88v-233c0-21 17-34 34-34h187v-177h-11v-3z" horiz-adv-x="1000" />

<glyph glyph-name="footer-line" unicode="&#xe813;" d="M504-71c-46-25-41 13-41 25 0 8 8 38 8 38 0 12 4 29 0 41-4 13-25 21-42 21-216 29-379 179-379 363-4 200 200 362 450 362s454-162 454-366c0-225-241-367-450-484z m-146 404c0 13-8 21-20 21h-63v142c0 12-8 21-21 21-12 0-21-9-21-21v-167c-4-8 5-21 17-21h83c13 0 25 13 25 25z m63 163c0 12-8 21-21 21-12 0-21-9-21-21v-167c0-12 9-21 21-21 13 0 21 9 21 21v167z m200 0c0 12-8 21-21 21-12 0-21-9-21-21v-104l-87 116c-4 5-13 9-17 9-4 0-4 0-8 0-9 0-13-9-13-21v-167c0-12 9-21 21-21 13 0 21 9 21 21v104l87-116c5-4 13-9 17-9 4 0 4 0 8 0 9 5 17 13 17 21-4 4-4 167-4 167z m137-58h-62v37h62c13 0 21 8 21 21s-8 21-21 21h-83c-12 0-21-9-21-21 0 0 0 0 0 0v-83 0c0 0 0 0 0 0v-84c0-12 9-21 21-21h83c13 0 21 9 21 21 0 13-8 21-21 21h-62v42h62c13 0 21 8 21 21 0 12-8 25-21 25l0 0z" horiz-adv-x="1000" />

<glyph glyph-name="footer-messenger" unicode="&#xe814;" d="M500 796c-242 0-437-183-437-408 0-121 54-234 154-313v-167l162 88c38-17 79-21 121-21 242 0 438 183 438 408 0 230-196 413-438 413z m46-546l-113 117-204-117 229 242 113-113 200 113-225-242z" horiz-adv-x="1000" />

<glyph glyph-name="invoice" unicode="&#xe816;" d="M851 850h-205-292-204c-27 0-48-20-48-47v-906c0-27 21-47 48-47h701c26 0 47 20 47 47v906c0 27-24 47-47 47z m-47-906h-608v812h607v-812z m-494 507h380c20 0 40 16 40 40 0 23-17 40-40 40h-380c-23-4-40-20-40-44s17-36 40-36z m0-155h380c20 0 40 17 40 40l0 0c0 21-17 41-40 41h-380c-20 0-40-17-40-41l0 0c0-23 17-40 40-40z m0-154h380c20 0 40 17 40 40 0 20-17 40-40 40h-380c-20 0-40-17-40-40s17-40 40-40z" horiz-adv-x="1000" />

<glyph glyph-name="line-footer" unicode="&#xe817;" d="M253 752c0 1-1 4-2 5-3 9-12 14-21 13-88-9-153-87-145-177 1-11 12-19 23-19 6 1 11 4 14 8s5 10 5 15c-3 32 6 63 26 88 20 25 49 40 81 43 11 2 20 12 19 24z m783-628c-2 11-14 18-25 16-5-2-10-5-13-10-2-5-3-11-2-16 8-31 3-63-14-91-16-28-42-47-73-54-12-3-18-15-16-26 1-2 2-4 3-5 4-8 14-12 22-10 86 21 139 109 118 196z m-814 686c11 2 20 12 18 24 0 1-1 4-1 5-4 9-12 14-22 13-64-6-121-37-162-87s-60-113-54-177c1-11 12-20 23-19 6 1 10 3 14 8 3 4 5 9 5 15-11 110 69 208 179 218z m896-669c-2 11-14 18-25 15-5-1-10-4-13-9-2-5-3-10-2-16 26-107-39-215-146-242-11-2-18-14-15-25 0-2 1-4 2-6 4-8 14-12 23-9 62 15 115 54 148 109 34 56 44 120 28 183z m-341 211l-30 27c-5 4-12 4-16-1l-100-113 17 194c0 1 0 1 0 2l0 1 0 1c0 0 0 0-1 0 0 0 0 1 0 1 0 0 0 0 0 1 0 0-1 0 0 1 0 0 0 0-1 0l0 0c0 0 0 0 0 1l-1 0c0 0 0 0 0 1l-1 0 0 1-1 0 0 1c0 0 0 0-1 0l-30 27c-4 4-12 4-16-1l-167-190c-4-4-3-11 1-15l31-27c4-4 12-4 16 0l99 113-16-194c-1-2 0-3 0-4l0-1c0 0 0 0 0-1l1 0 0-1c0 0 0 0 1 0l0-1c1 0 1-1 2-2l30-27c5-4 12-4 16 1l168 190c4 4 3 11-1 15z m-211 185l-30 27c-5 4-12 4-16-1l-167-189c-4-5-4-12 1-16l31-27c4-4 11-4 15 1l168 190c4 4 3 11-2 15z m-213-94l-84 73 133 150c4 5 4 12-1 17l-31 27c-4 4-11 4-16-1l-167-190c-2-3-3-5-3-8 0-3 2-6 4-8l122-107c4-4 11-4 16 1l26 30c6 4 6 11 1 16z m440-246l28 33 83-74c5-3 12-3 16 2l27 30c4 4 3 11-2 15l-122 107c-2 3-5 3-8 3-3 0-5-1-7-4l-167-190c-3-2-3-4-3-7 0-4 1-6 4-8l122-108c4-4 11-3 16 2l26 30c4 4 4 12-1 16l-83 73 28 32 83-73c5-4 12-4 16 1l27 31c4 4 4 11 0 15l-83 74z" horiz-adv-x="1126" />

<glyph glyph-name="login-icon-email" unicode="&#xe818;" d="M905 725h-812c-52 0-93-42-93-93v-563c0-52 41-93 93-93h814c51 0 93 41 93 93v563c0 51-43 93-95 93z m0-93v-80c-44-36-113-92-263-208-33-26-98-87-144-87-46-2-110 61-143 87-149 117-219 172-264 208v80c1 0 814 0 814 0z m-812-563v362c45-36 109-86 205-162 43-33 117-107 202-107 83 0 157 73 202 107 97 76 160 126 205 162v-362h-814z" horiz-adv-x="1000" />

<glyph glyph-name="login-icon-facebook" unicode="&#xe819;" d="M864 850h-730c-75 0-135-60-135-135v-730c0-75 60-135 135-135h360v357h-93c-12 0-22 10-22 21v115c0 12 10 22 22 22h93v112c0 128 79 200 194 200h95c12 0 22-10 22-21v-97c0-11-10-22-22-22h-58c-64 0-75-30-75-73v-96h138c14 0 24-12 22-25l-13-116c-2-11-10-19-22-19h-123v-357h215c75 0 135 60 135 135v732c-4 72-65 132-138 132l0 0z" horiz-adv-x="1000" />

<glyph glyph-name="login-icon-google" unicode="&#xe81a;" d="M989 441h-479v-192h274c-4-30-18-60-34-85-17-26-40-48-67-65l0 0c-45-30-103-48-173-48-133 0-244 88-284 206l0 0c-10 30-17 61-17 95s5 65 17 95l0 0c40 118 153 206 284 206 75 0 141-26 195-75l146 142c-88 80-203 130-341 130-199 0-370-111-454-274l0 0 0 0c-36-72-54-148-54-226 0-80 20-156 54-224l0 0c42-83 107-152 188-202 80-48 173-74 268-74 138 0 253 44 335 121l0 0c97 86 152 214 152 365l0 0c-2 39-5 72-10 105z" horiz-adv-x="1000" />

<glyph glyph-name="login-icon-heart" unicode="&#xe81b;" d="M944 659c-47 65-113 106-188 116-73 9-144-14-200-65l-56-50-56 50c-56 51-128 74-200 65-76-8-142-50-188-116-90-131-70-319 46-422l399-355 396 355c116 103 137 293 47 422z m-118-350l-328-292-328 292-3 4c-77 69-91 202-29 289 29 42 71 68 117 74 6 2 12 2 18 2 39 0 76-16 102-42l122-108 121 108c35 31 79 45 124 40 46-6 87-32 117-74 61-87 48-220-33-293z" horiz-adv-x="1000" />

<glyph glyph-name="login-icon-instagram" unicode="&#xe81c;" d="M702 850h-404c-165 0-298-133-298-298v-404c0-165 133-298 298-298h404c165 0 298 134 298 298v404c0 165-133 298-298 298z m198-702c0-108-88-198-198-198h-404c-108 0-198 88-198 198v404c0 108 88 198 198 198h404c108 0 198-88 198-198v-404z m-401 461c-143 0-258-117-258-258 0-143 117-258 258-258s258 116 258 258-115 258-258 258z m0-416c-86 0-158 72-158 158s72 158 158 158 158-72 158-158c0-88-70-158-158-158z m260 476c-35 0-62-28-62-62 0-35 28-62 62-62 35 0 62 29 62 62-1 34-27 62-62 62z" horiz-adv-x="1000" />

<glyph glyph-name="login-icon-invoice" unicode="&#xe81d;" d="M885 850h-240-290-239c-27 0-47-22-47-46v-907c0-26 22-46 47-46h769c26 0 46 21 46 46v907c0 24-20 46-46 46z m-47-907h-676v813h674v-813h2z m-528 506h381c22 0 39 17 39 39 0 22-17 39-39 39h-381c-21 0-38-17-38-39-2-22 17-39 38-39z m0-155h381c22 0 39 18 39 39 0 22-17 39-39 39h-381c-21 0-38-17-38-39-2-20 17-39 38-39z m0-153h381c22 0 39 18 39 39s-17 39-39 39h-381c-21 0-38-17-38-39s17-39 38-39z" horiz-adv-x="1000" />

<glyph glyph-name="login-icon-join" unicode="&#xe81e;" d="M501 222c-174 0-314 141-314 314s140 314 314 314 314-141 314-314c2-174-141-314-314-314z m0 527c-117 0-213-96-213-213s95-214 213-214 213 96 213 214c2 117-94 213-213 213z m343-899h-685c-43 0-81 23-103 59-21 38-19 82 2 118 75 121 248 198 442 198s368-77 441-198c23-36 23-81 2-118-17-36-57-59-99-59z m-343 275c-157 0-301-60-355-151-4-7-2-12 0-15 1-3 6-9 13-9h684c8 0 12 5 13 9 2 3 3 10 0 15-54 91-197 151-355 151z" horiz-adv-x="1000" />

<glyph glyph-name="login-icon-line" unicode="&#xe81f;" d="M1050 425c0 234-236 425-524 425-290 0-526-191-526-425 0-210 186-386 439-421 16-3 40-10 46-25 7-14 4-35 2-48 0 0-6-38-8-45-3-14-10-53 45-29 56 24 302 177 412 305l0 0c78 84 114 168 114 263z m-710-126c0-6-5-11-11-11h-147l0 0c-3 0-5 2-8 3l0 0 0 0c-1 2-3 5-3 8l0 0v230c0 6 5 10 11 10h37c6 0 11-4 11-10v-182h100c6 0 11-4 11-11v-37h-1z m88 0c0-6-4-11-10-11h-38c-6 0-10 5-10 11v230c0 6 4 10 10 10h38c6 0 10-4 10-10v-230z m254 0c0-6-5-11-11-11h-36c-1 0-1 0-3 0l0 0 0 0 0 0 0 0 0 0 0 0 0 0 0 0c-1 0-1 2-3 3l-105 142v-136c0-6-5-10-11-10h-36c-6 0-10 4-10 10v232c0 6 4 10 10 10h36l0 0 0 0 0 0 0 0 0 0 0 0 0 0 0 0 0 0 0 0 0 0 0 0 0 0 0 0 0 0 0 0 0 0 0 0c0 0 0 0 2-1l105-141v135c0 6 4 10 10 10h36c6 0 11-4 11-10v-233h5z m203 192c0-6-5-10-11-10h-101v-40h101c6 0 11-4 11-10v-36c0-7-5-11-11-11h-101v-39h101c6 0 11-5 11-11v-37c0-6-5-11-11-11h-147l0 0c-3 0-5 1-8 3l0 0 0 0c-1 2-3 5-3 8l0 0v232l0 0c0 3 1 4 3 7l0 0 0 0c2 1 5 3 8 3l0 0h147c6 0 11-4 11-10v-38z" horiz-adv-x="1050" />

<glyph glyph-name="login-icon-list" unicode="&#xe820;" d="M883 850h-239-290-238c-26 0-47-20-47-47v-906c0-27 20-47 47-47h768c27 0 47 20 47 47v906c-1 27-22 47-48 47z m-286-92v-88h-196v88h196z m-434-814v814h146v-135c0-26 20-47 47-47h290c26 0 47 20 47 47v135h146v-488h-398c-27 0-48-20-48-47s21-47 48-47h396v-58h-396c-27 0-48-20-48-47s21-47 48-47h396v-79l-674-1 0 0z" horiz-adv-x="1000" />

<glyph glyph-name="login-icon-logout" unicode="&#xe821;" d="M949 160c-30 0-53-23-53-52v-153h-793v135c0 30-23 52-52 52s-53-23-53-52v-188c0-30 23-52 53-52h898c30 0 52 23 52 52v206c1 28-22 52-52 52z m-487-91c5-5 11-9 18-12s14-4 21-4c7 0 14 2 19 4 7 3 13 7 18 12l224 226c21 21 21 54 0 75-21 21-54 21-75 0l-135-135v563c0 30-23 52-53 52-30 0-52-23-52-52v-564l-135 135c-21 21-54 21-76 0-21-22-21-55 0-76l226-224z" horiz-adv-x="1000" />

<glyph glyph-name="login-icon-map" unicode="&#xe822;" d="M502 850c-224 0-407-183-407-407 0-108 41-208 114-283l256-294c8-10 21-16 34-16s25 6 33 16l255 292c74 77 117 178 117 285 3 224-180 407-402 407z m222-631l-222-256-226 260c-59 58-90 138-90 220 0 175 141 316 316 316s316-141 316-316c-1-82-33-162-94-224z m-222 448c-115 0-208-94-208-208s94-208 208-208 208 94 208 208-94 208-208 208z m0-345c-75 0-137 61-137 137s61 137 137 137c74 0 136-61 136-137s-61-137-136-137z" horiz-adv-x="1000" />

<glyph glyph-name="login-icon-message" unicode="&#xe823;" d="M501 850c-266 0-482-203-482-452 0-129 58-252 162-337v-211l202 112c38-9 79-14 118-14 264 0 480 201 480 450s-216 452-480 452z m-2-94c158 0 293-88 353-213l-263-148-150 159-288-308c-25 47-38 99-38 154 0 197 174 356 386 356z m2-714c-38 0-75 5-112 16l-19 5-94-52v97l-19 15c-43 31-76 69-100 112l256 138 146-157 296 317c19-42 30-88 30-135 0-193-172-356-384-356z" horiz-adv-x="1000" />

<glyph glyph-name="login-icon-refund" unicode="&#xe824;" d="M884 850h-239-290-239c-26 0-46-22-46-46v-907c0-27 21-47 46-47h768c27 0 46 22 46 47v907c2 26-20 46-46 46z m-482-93h196v-88h-196v88z m-240 0h145v-134c0-26 22-46 47-46h290c27 0 47 21 47 46v134h145v-488-67l-186 163c-11 9-28 12-40 6-14-6-22-21-22-34v-79h-252c-22 0-39-17-39-39s17-39 39-39h291c22 0 39 17 39 39v33l138-121-138-120v32c0 22-17 39-39 39h-117c-21 0-39-17-39-39s18-39 39-39h79v-61h-427v814z m676-814h-133l133 116v-37c0 0 0-79 0-79z" horiz-adv-x="1000" />

<glyph glyph-name="login-icon-trash" unicode="&#xe825;" d="M941 639l-31 65c-5 9-16 18-28 18h-223v64c1 35-28 64-64 64h-189c-35 0-65-28-65-64v-65h-222c-11 0-23-6-28-18l-31-64c-9-15-2-35 15-43 4-2 9-3 15-3h39v-692c0-29 23-50 50-50h644c28 0 49 23 49 50v692h40c18 0 31 15 31 31 1 5 0 10-2 15z m-476 144h71v-65h-71v65z m-236-833v643h544v-643h-544z m155 549c-23 0-41-18-41-41v-379c0-23 18-41 41-41 23 0 41 18 41 41v379c2 21-18 41-41 41z m232 0c-22 0-41-18-41-41v-379c0-23 19-41 41-41s41 18 41 41v379c1 21-17 41-41 41z" horiz-adv-x="1000" />

<glyph glyph-name="login-icon-youtube" unicode="&#xe826;" d="M792 704h-585c-115 0-207-93-207-207v-293c0-116 94-208 207-208h585c116 0 208 94 208 208v291c0 116-92 209-208 209l0 0z m-140-369l-275-130c-7-3-15 1-15 10v269c0 8 8 13 16 10l274-139c9-5 9-15 0-20l0 0z" horiz-adv-x="1000" />

<glyph glyph-name="mail" unicode="&#xe827;" d="M1090-44c-33-55-86-94-148-110-9-2-19 2-23 10-1 2-2 4-2 6-3 11 4 22 15 25 107 26 172 135 146 242-1 5 0 11 2 16 3 5 8 8 13 9 11 3 23-4 25-15 16-63 6-128-28-183z m-172-30c-8-2-18 2-22 9-1 2-2 4-3 6-2 11 4 23 16 25 31 8 57 27 73 55 17 27 22 60 14 91-1 5 0 11 2 16 3 5 8 8 13 10 11 2 23-5 25-16 21-87-32-175-118-196z m-40 177l-341-151c-48-20-102-2-122 41l-217 468c-20 43 2 95 49 116l342 150c47 20 102 2 122-41l217-468c20-43-2-95-50-115z m-359-112l342 151c4 2 8 5 11 8l-231 97-131-257c2 0 5 0 9 1z m-281 501c1-4 1-8 3-12l217-469c1-4 5-7 7-10l134 263-89 37c-5 2-9 5-11 10-2 5-2 10-1 15l30 90-290 76z m369 196l-342-151c-3-1-4-3-7-5l284-74 79 233c-5-1-9-1-14-3z m278-489l-217 469c-1 2-3 4-5 6l-114-341 338-142c-1 3-1 6-2 8z m-651 527c-32-3-61-18-81-43-20-25-30-56-27-88 1-6-1-11-4-15-4-5-9-7-14-8-11-1-22 8-23 19-9 89 56 168 145 177 9 1 18-4 21-13 1-2 1-4 1-5 2-12-7-23-18-24z m-12 82c-110-10-190-108-179-218 0-6-2-11-5-16-4-4-8-7-14-7-11-1-22 7-23 18-6 65 13 127 54 178 41 50 98 81 162 87 10 1 18-4 22-13 0-2 1-4 1-5 2-12-7-23-18-24z" horiz-adv-x="1126" />

<glyph glyph-name="member" unicode="&#xe828;" d="M446-146c-4 0-4 0 0 0l0 0c-13 0-214 18-336 161-57 57-43 153-21 197 4 8 52 131 113 257 122 266 161 310 175 323 39 43 108 61 191 52 92-9 214-52 275-161 70-127 87-375 87-392 0-49-43-179-187-301-149-127-275-136-297-136m-166 576c-39-87-82-183-113-253l0 0c0 0-26-61 9-92l0 0v-4c92-114 257-131 270-131 5 0 31 0 70 13 39 13 100 39 170 100 144 131 157 240 157 240 0 26-22 249-74 344-44 74-135 114-209 122-53 5-105-4-123-26v-4c-17-18-43-61-74-127l0 0c35-4 61-17 83-43 18-22 26-48 22-70-5-22-18-48-35-61-18-13-48-30-96-21-26-5-48 4-57 13m53 74c0-4 0-9 0-9s4-4 13-4c21-5 30 0 35 9 0 4-9 17-26 17-14 0-18-4-22-13m109-441c-35 0-74 9-109 22-74 30-144 109-122 161 13 26 39 44 87 44 35 0 74-4 113-22 74-30 162-100 136-165l0 0c-13-26-44-44-92-44-9 4-13 4-13 4m-131 144c13-13 30-26 57-35s48-13 65-13c-13 13-35 26-61 39-22 5-43 9-61 9m331 101c-26 0-52 4-74 13-78 30-104 87-100 135 0 26 22 44 40 57 48 35 104 22 135 13 65-21 118-78 118-135 0-22-14-44-40-61-22-18-53-22-79-22m-87 135c5-9 13-26 44-35 35-13 57-9 69-5-8 14-26 31-52 40-35 8-52 4-61 0" horiz-adv-x="1000" />

<glyph glyph-name="nav_logo.tw" unicode="&#xe829;" d="M6967-133h-116l-93 144v-144h-103v353h103v-131l87 131h116l-126-168 132-185z m-41 337h-71l-96-145c-19 9-19 34-19 50v2c0 1 0 1 0 1v91h-67v-320h67v104c0 1 0 1 0 2v2c0 16 0 41 19 50l102-158h72l-119 169 112 152z m-410-95v7c0 17-10 27-27 27-17 0-28-9-28-24 0-13 13-19 41-26l8-2c2-1 5-2 6-2 66-19 97-56 97-113 0-64-56-117-126-117-75 0-127 49-127 119v8h99l1-2v-7c0-15 12-27 27-27 17 0 26 8 26 21 0 14-14 20-43 30l-3 1c-5 1-8 2-10 3-69 24-97 57-97 113 0 65 57 117 127 117 75 0 121-43 126-118l1-9h-96l-2 1z m14 24c0-2 1-3 2-5l1-3h62l-1 5c-10 56-46 86-107 88-61 0-110-45-110-100 0-49 23-75 85-96 3-1 5-2 10-4l3 0c20-7 28-10 36-15 13-9 19-19 19-32 0-22-17-37-43-37-15 0-28 7-37 19-2 2-2 5-3 8-1 2-2 4-2 5l-1 3h-66l1-6c8-54 46-85 108-87 60 0 109 44 109 100 0 49-27 80-84 96-2 1-4 1-6 2l-8 2c-19 6-27 8-35 13-12 8-18 17-18 30 0 24 18 41 45 41 11 0 27-4 37-19 1-2 2-5 3-8z m-144 284c0-67-58-121-130-121-84 0-132 54-132 122h92c0-22 18-39 40-39 24 0 38 13 38 32 0 28-38 36-69 47-65 22-101 51-101 116 0 66 59 120 131 120 85 0 126-53 131-122h-88c0 21-14 39-40 39-21 0-41-12-41-36 0-28 36-33 68-42 69-20 101-58 101-116z m-311 0c0-67-58-121-130-121-84 0-131 54-131 122h91c0-22 18-39 40-39 24 0 38 13 38 32 0 28-38 36-69 47-65 22-100 51-100 116 0 66 58 120 130 120 86 0 126-53 131-122h-88c0 21-14 39-40 39-21 0-40-12-40-36 0-28 35-33 67-42 69-20 101-58 101-116z m-119-197v-353h-102v121l-9-21-52-111h-25l-53 112-9 21v-122h-102v354h94l82-171 84 171 92-1 0 0z m-176-210l-94 193h-65v-320h68v144h18l73-158 73 157h18v-143h67v320h-64l-94-193z m-283 672h255v-81h-160v-68h148v-79h-148v-67h167v-78h-262v373z m-121-683h-118v-132h-103v353h103v-132h118v132h102v-353h-102v132z m17-116h67v320h-67v-132h-153v132h-68v-320h68v134h153v-134z m-183 799h94v-295h152v-79h-246v374z m-328 0h255v-81h-160v-68h148v-79h-148v-67h167v-78h-261l-1 373 0 0z m238-552h-79v-263h-103v263h-78v90h260v-90z m-18 73h-224v-56h78v-264h67v264h79v56z m-425-348c-87 0-145 54-145 133v232h102v-219c0-36 14-52 43-52 31 0 44 15 44 52v219h102v-232c0-79-59-133-146-133z m129 348h-68v-202c0-46-21-69-61-69-39 0-60 24-60 69v202h-67v-215c0-70 50-116 127-116s129 47 129 116v215z m-108 280l-84-188h-16l-84 190v-177h-94v374h88l98-204 99 204h86v-374h-93l0 175 0 0z m-272-485l-5-3 96-129h-128l-75 107v-106h-102v353h153c79 0 132-46 132-115 0-53-24-89-71-107z m-61 205h-136v-320h67v132h10l92-132h84l-91 122 13 3c51 13 75 44 75 96 0 60-46 99-114 99z m8-146h-77v93h74c24 0 43-20 43-45 1-27-17-48-40-48z m-2 76h-57v-59h60c12 0 22 14 22 31 0 15-11 28-25 28z m-134 549h94v-374h-94v374z m-156-374h-95v293h-86v81h268v-81h-87l0-293 0 0z m-448-313c-151-127-282-134-307-134-2 0-4 0-4 0 0 0-191 15-344 159-64 59-49 148-29 192 3 7 57 128 119 256 126 264 167 307 182 321 38 42 113 62 201 54 96-8 222-55 285-159 75-123 92-370 91-388-2-49-45-176-194-301z m-441 506c1-3 7-5 19-6 27-4 43 1 49 8-3 7-12 21-39 25-33 4-32-20-29-27z m466 138c-46 77-143 106-216 117-100 16-128-28-128-28-17-16-45-62-78-124 1 0 1 0 1 0 35-3 66-19 86-44 18-21 27-46 24-69-2-23-16-47-36-62-18-14-49-29-100-23-29 3-49 13-61 24-43-88-86-180-118-253l0-1c0 0-28-62 8-93 0 0 93-100 286-134 5-1 32 0 72 13 41 12 105 39 176 99 150 127 163 237 163 238 0 28-21 245-79 340z m-127-330c-27 0-54 6-76 14-80 30-107 87-105 131 1 24 21 46 39 58 50 34 111 22 143 12 69-22 123-80 121-132-1-23-15-45-39-61-25-15-54-22-83-22z m-23 135c-40 13-67 6-76 0 4-11 15-30 51-44 37-15 72-7 86-1-9 13-28 35-61 45z m-84-332l0 0c-12-28-44-43-94-45-3 0-5 0-8 0-37 0-76 8-113 22-82 33-155 105-131 160 11 27 42 44 88 46 36 2 78-6 117-21 75-30 166-103 141-162z m-175 85c-36 15-69 20-93 21 19-17 47-37 85-52 36-14 71-20 99-21-22 18-53 38-91 52z m-618-328h-68v406h-141c-3-143-28-299-137-410l-28 71c76 98 94 225 97 340h-106v67h107v270h-98v66h465v-66h-91v-271h110v-67h-110v-406z m-68 744h-140v-271h140v271z m-550-222h180v-491h-235v365c-22-44-38-62-66-91l-31 76c76 97 119 224 144 364h-121v65h340v-65h-145c-15-78-34-148-66-223z m6-428h110v366h-110v-366z m-381-30c22 0 132 0 170 1l-25-62h-148c-140 0-237 22-296 146-33-68-62-105-114-150l0 1-27 65c67 65 103 159 118 280h68c-5-35-11-69-20-100 28-79 59-135 114-157v305h-224v65h528v-65h-236v-109h189v-58h-189v-156c29-4 60-6 92-6z m-314 766h404v-306h-404l0 306 0 0z m66-252h270v75h-270v-75z m0 124h270v75h-270v-75z m-261-281l94 28v-67c-31-10-62-20-94-31v-264c0-39-9-56-33-68-22-11-57-13-114-13l-26 65c41-1 78-1 88-1 13 0 18 4 18 19v242c-37-12-71-22-104-32l-26 65c36 9 80 22 130 37v206h-120v65h120v164h67v-164h106v-65h-106v-186z m-423-357c23 0 133 0 171 1l-26-62h-148c-139 0-236 22-296 146-32-68-61-105-113-150l0 1-27 65c67 65 103 159 118 280h67c-4-35-10-69-19-100 28-79 59-135 114-157v305h-224v65h528v-65h-236v-109h189v-58h-189v-156c28-4 59-6 91-6z m-313 766h404v-306h-404v306z m66-252h269v75h-269v-75z m0 124h269v75h-269v-75z m-262-281l94 28v-67c-30-10-62-20-94-31v-264c0-39-9-56-33-68-22-11-56-13-113-13l-27 65c41-1 78-1 88-1 13 0 18 4 18 19v242c-36-12-71-22-103-32l-27 65c36 8 81 21 130 36v207h-119v65h119v164h67v-164h107v-65h-107v-186z m3971-160h-79v-263h-103v263h-77v90h259v-90z m-18 73h-224v-56h77v-264h68v264h79l0 56 0 0z m2033 28l179-365h-111l-17 35h-126l-17-35h-110l176 365h26z m-103-348l17 35h148l17-35h72l-164 335-162-335 72 0 0 0z m144 79h-108l53 113 49-103 6-10z m-54 79l-27-64h53l-26 64z" horiz-adv-x="6967" />

<glyph glyph-name="nav_logo_tw" unicode="&#xe82a;" d="M6967-133h-116l-93 144v-144h-103v353h103v-131l87 131h116l-126-168 132-185z m-41 337h-71l-96-145c-19 9-19 34-19 50v2c0 1 0 1 0 1v91h-67v-320h67v104c0 1 0 1 0 2v2c0 16 0 41 19 50l102-158h72l-119 169 112 152z m-410-95v7c0 17-10 27-27 27-17 0-28-9-28-24 0-13 13-19 41-26l8-2c2-1 5-2 6-2 66-19 97-56 97-113 0-64-56-117-126-117-75 0-127 49-127 119v8h99l1-2v-7c0-15 12-27 27-27 17 0 26 8 26 21 0 14-14 20-43 30l-3 1c-5 1-8 2-10 3-69 24-97 57-97 113 0 65 57 117 127 117 75 0 121-43 126-118l1-9h-96l-2 1z m14 24c0-2 1-3 2-5l1-3h62l-1 5c-10 56-46 86-107 88-61 0-110-45-110-100 0-49 23-75 85-96 3-1 5-2 10-4l3 0c20-7 28-10 36-15 13-9 19-19 19-32 0-22-17-37-43-37-15 0-28 7-37 19-2 2-2 5-3 8-1 2-2 4-2 5l-1 3h-66l1-6c8-54 46-85 108-87 60 0 109 44 109 100 0 49-27 80-84 96-2 1-4 1-6 2l-8 2c-19 6-27 8-35 13-12 8-18 17-18 30 0 24 18 41 45 41 11 0 27-4 37-19 1-2 2-5 3-8z m-144 284c0-67-58-121-130-121-84 0-132 54-132 122h92c0-22 18-39 40-39 24 0 38 13 38 32 0 28-38 36-69 47-65 22-101 51-101 116 0 66 59 120 131 120 85 0 126-53 131-122h-88c0 21-14 39-40 39-21 0-41-12-41-36 0-28 36-33 68-42 69-20 101-58 101-116z m-311 0c0-67-58-121-130-121-84 0-131 54-131 122h91c0-22 18-39 40-39 24 0 38 13 38 32 0 28-38 36-69 47-65 22-100 51-100 116 0 66 58 120 130 120 86 0 126-53 131-122h-88c0 21-14 39-40 39-21 0-40-12-40-36 0-28 35-33 67-42 69-20 101-58 101-116z m-119-197v-353h-102v121l-9-21-52-111h-25l-53 112-9 21v-122h-102v354h94l82-171 84 171 92-1 0 0z m-176-210l-94 193h-65v-320h68v144h18l73-158 73 157h18v-143h67v320h-64l-94-193z m-283 672h255v-81h-160v-68h148v-79h-148v-67h167v-78h-262v373z m-121-683h-118v-132h-103v353h103v-132h118v132h102v-353h-102v132z m17-116h67v320h-67v-132h-153v132h-68v-320h68v134h153v-134z m-183 799h94v-295h152v-79h-246v374z m-328 0h255v-81h-160v-68h148v-79h-148v-67h167v-78h-261l-1 373 0 0z m238-552h-79v-263h-103v263h-78v90h260v-90z m-18 73h-224v-56h78v-264h67v264h79v56z m-425-348c-87 0-145 54-145 133v232h102v-219c0-36 14-52 43-52 31 0 44 15 44 52v219h102v-232c0-79-59-133-146-133z m129 348h-68v-202c0-46-21-69-61-69-39 0-60 24-60 69v202h-67v-215c0-70 50-116 127-116s129 47 129 116v215z m-108 280l-84-188h-16l-84 190v-177h-94v374h88l98-204 99 204h86v-374h-93l0 175 0 0z m-272-485l-5-3 96-129h-128l-75 107v-106h-102v353h153c79 0 132-46 132-115 0-53-24-89-71-107z m-61 205h-136v-320h67v132h10l92-132h84l-91 122 13 3c51 13 75 44 75 96 0 60-46 99-114 99z m8-146h-77v93h74c24 0 43-20 43-45 1-27-17-48-40-48z m-2 76h-57v-59h60c12 0 22 14 22 31 0 15-11 28-25 28z m-134 549h94v-374h-94v374z m-156-374h-95v293h-86v81h268v-81h-87l0-293 0 0z m-448-313c-151-127-282-134-307-134-2 0-4 0-4 0 0 0-191 15-344 159-64 59-49 148-29 192 3 7 57 128 119 256 126 264 167 307 182 321 38 42 113 62 201 54 96-8 222-55 285-159 75-123 92-370 91-388-2-49-45-176-194-301z m-441 506c1-3 7-5 19-6 27-4 43 1 49 8-3 7-12 21-39 25-33 4-32-20-29-27z m466 138c-46 77-143 106-216 117-100 16-128-28-128-28-17-16-45-62-78-124 1 0 1 0 1 0 35-3 66-19 86-44 18-21 27-46 24-69-2-23-16-47-36-62-18-14-49-29-100-23-29 3-49 13-61 24-43-88-86-180-118-253l0-1c0 0-28-62 8-93 0 0 93-100 286-134 5-1 32 0 72 13 41 12 105 39 176 99 150 127 163 237 163 238 0 28-21 245-79 340z m-127-330c-27 0-54 6-76 14-80 30-107 87-105 131 1 24 21 46 39 58 50 34 111 22 143 12 69-22 123-80 121-132-1-23-15-45-39-61-25-15-54-22-83-22z m-23 135c-40 13-67 6-76 0 4-11 15-30 51-44 37-15 72-7 86-1-9 13-28 35-61 45z m-84-332l0 0c-12-28-44-43-94-45-3 0-5 0-8 0-37 0-76 8-113 22-82 33-155 105-131 160 11 27 42 44 88 46 36 2 78-6 117-21 75-30 166-103 141-162z m-175 85c-36 15-69 20-93 21 19-17 47-37 85-52 36-14 71-20 99-21-22 18-53 38-91 52z m-618-328h-68v406h-141c-3-143-28-299-137-410l-28 71c76 98 94 225 97 340h-106v67h107v270h-98v66h465v-66h-91v-271h110v-67h-110v-406z m-68 744h-140v-271h140v271z m-550-222h180v-491h-235v365c-22-44-38-62-66-91l-31 76c76 97 119 224 144 364h-121v65h340v-65h-145c-15-78-34-148-66-223z m6-428h110v366h-110v-366z m-381-30c22 0 132 0 170 1l-25-62h-148c-140 0-237 22-296 146-33-68-62-105-114-150l0 1-27 65c67 65 103 159 118 280h68c-5-35-11-69-20-100 28-79 59-135 114-157v305h-224v65h528v-65h-236v-109h189v-58h-189v-156c29-4 60-6 92-6z m-314 766h404v-306h-404l0 306 0 0z m66-252h270v75h-270v-75z m0 124h270v75h-270v-75z m-261-281l94 28v-67c-31-10-62-20-94-31v-264c0-39-9-56-33-68-22-11-57-13-114-13l-26 65c41-1 78-1 88-1 13 0 18 4 18 19v242c-37-12-71-22-104-32l-26 65c36 9 80 22 130 37v206h-120v65h120v164h67v-164h106v-65h-106v-186z m-423-357c23 0 133 0 171 1l-26-62h-148c-139 0-236 22-296 146-32-68-61-105-113-150l0 1-27 65c67 65 103 159 118 280h67c-4-35-10-69-19-100 28-79 59-135 114-157v305h-224v65h528v-65h-236v-109h189v-58h-189v-156c28-4 59-6 91-6z m-313 766h404v-306h-404v306z m66-252h269v75h-269v-75z m0 124h269v75h-269v-75z m-262-281l94 28v-67c-30-10-62-20-94-31v-264c0-39-9-56-33-68-22-11-56-13-113-13l-27 65c41-1 78-1 88-1 13 0 18 4 18 19v242c-36-12-71-22-103-32l-27 65c36 8 81 21 130 36v207h-119v65h119v164h67v-164h107v-65h-107v-186z m3971-160h-79v-263h-103v263h-77v90h259v-90z m-18 73h-224v-56h77v-264h68v264h79l0 56 0 0z m2033 28l179-365h-111l-17 35h-126l-17-35h-110l176 365h26z m-103-348l17 35h148l17-35h72l-164 335-162-335 72 0 0 0z m144 79h-108l53 113 49-103 6-10z m-54 79l-27-64h53l-26 64z" horiz-adv-x="6967" />

<glyph glyph-name="news_social_facebook" unicode="&#xe82b;" d="M553 531c0 28 18 34 31 34h79v122l-109 0c-121 0-149-90-149-148v-81h-70v-126h70v-319h148v319h99l13 126h-112v73z" horiz-adv-x="1000" />

<glyph glyph-name="news_social_line" unicode="&#xe82c;" d="M381 485h-40c-6 0-11-5-11-11v-248c0-6 5-11 11-11h40c6 0 11 5 11 11v248c0 6-6 11-11 11z m274 0h-40c-6 0-11-5-11-11v-147l-114 153c0 1 0 1-1 1 0 0 0 0 0 0 0 1 0 1 0 1 0 0 0 0 0 0 0 0-1 1-1 1 0 0 0 0 0 0 0 0-1 1-1 1 0 0 0 0 0 0 0 0-1 0-1 0 0 0 0 0 0 0 0 0-1 0-1 1 0 0 0 0 0 0 0 0 0 0 0 0 0 0-1 0-1 0 0 0 0 0 0 0 0 0-1 0-1 0 0 0 0 0 0 0 0 0-1 0-1 0 0 0 0 0 0 0h-40c-6 0-11-5-11-11v-248c0-6 5-11 11-11h40c6 0 11 5 11 11v147l114-153c1-2 2-3 2-3 0 0 0 0 0 0 1 0 1-1 1-1 0 0 0 0 1 0 0 0 0 0 0 0 0 0 1 0 1 0 0 0 0 0 0 0 0 0 0 0 1-1 0 0 0 0 0 0 1 0 2 0 3 0h39c6 0 11 5 11 11v248c0 6-5 11-11 11z m-371-208h-108v197c0 6-5 11-11 11h-40c-6 0-11-5-11-11v-248 0c0-3 2-6 3-7 0 0 0 0 0 0 0 0 0 0 0 0 3-2 5-3 8-3h0 159c6 0 11 4 11 11v39c0 6-5 11-11 11z m591 146c6 0 11 5 11 11v40c0 6-5 11-11 11h-159 0c-3 0-6-2-7-4 0 0 0 0 0 0 0 0 0 0 0 0-2-1-3-4-3-7v0-248 0c0-3 1-6 3-7 0 0 0 0 0 0 0 0 0 0 0 0 2-2 4-3 7-3h0 159c6 0 11 4 11 11v39c0 6-5 11-11 11h-108v42h108c6 0 11 5 11 11v40c0 6-5 11-11 11h-108v42h108z" horiz-adv-x="1000" />

<glyph glyph-name="news_social_twittter" unicode="&#xe82d;" d="M394 97c234 0 363 195 363 363 0 6 0 11-1 17 25 18 47 40 64 66-23-10-48-17-73-21 26 16 46 41 56 71-25-15-53-25-81-31-24 25-57 41-93 41-70 0-128-58-128-128 0-10 2-20 4-29-106 5-200 56-263 133-11-18-17-40-17-64 0-44 22-83 57-106-21 1-41 6-58 16 0-1 0-1 0-1 0-62 44-114 102-125-10-3-22-5-33-5-9 0-16 1-24 3 16-51 63-88 119-89-44-34-99-55-158-55-10 0-21 1-31 2 55-36 122-58 195-58" horiz-adv-x="1000" />

<glyph glyph-name="notice" unicode="&#xe82e;" d="M500 850c-276 0-500-224-500-500s224-500 500-500 500 224 500 500-224 500-500 500z m0-926c-235 0-425 191-425 426s190 426 425 426c235 0 426-191 426-426s-191-426-426-426z m0 322c-53 0-97-43-97-97 0-53 43-97 97-97 53 0 97 44 97 97 0 54-44 97-97 97z m-51 38h102c13 0 25 11 25 24l16 287c1 14-11 26-25 26h-134c-14 0-26-12-25-26l16-287c0-13 12-24 25-24z" horiz-adv-x="1000" />

<glyph glyph-name="phone" unicode="&#xe82f;" d="M1090-42c-33-55-86-94-148-109-9-3-19 1-23 9-1 2-2 4-2 6-3 11 4 23 15 25 107 27 172 135 146 242-1 6 0 11 2 16 3 5 8 8 13 9 11 3 23-4 25-15 16-63 6-127-28-183z m-172-30c-8-2-18 2-22 10-1 1-2 3-3 5-2 11 4 23 16 26 31 7 57 26 73 54 17 28 22 60 14 91-1 5 0 11 2 16 3 5 8 8 13 10 11 2 23-5 25-16 21-87-32-175-118-196z m3 84l-375-151c-31-13-66 2-78 33l-288 719c-12 31 3 66 34 78l375 152c31 12 66-3 78-34l288-719c12-31-3-66-34-78z m-251-21c8-19 30-29 49-21 20 8 29 30 21 49-8 20-30 29-49 22-20-8-29-30-21-50z m-58 736c-3 8-13 13-21 9l-305-123c-9-4-13-13-9-22l221-553c3-8 13-13 21-9l306 123c8 3 13 13 9 21l-222 554z m-378 1c-32-3-61-18-81-43-20-25-29-56-26-88 0-5-1-11-5-15-3-4-8-7-14-8-11 0-22 8-23 19-8 90 57 168 145 177 9 1 18-4 21-13 1-1 2-4 2-5 1-12-8-22-19-24z m-12 82c-110-10-190-108-179-218 0-6-2-11-5-15-4-5-8-7-14-8-11-1-22 8-23 19-6 64 13 127 54 177 41 50 98 81 162 87 10 1 18-4 22-13 0-1 1-4 1-5 2-12-7-22-18-24z" horiz-adv-x="1126" />

<glyph glyph-name="pushy-arrow" unicode="&#xe830;" d="M64-150c-18 0-27 9-46 18-27 28-27 65 0 92l395 395-395 385c-27 27-27 64 0 92s65 27 92 0l413-413c18-18 28-46 28-74s-19-45-37-64l-413-413c-9-9-18-18-37-18z m367 486l0 0 0 0z" horiz-adv-x="541" />

<glyph glyph-name="review_edit" unicode="&#xe831;" d="M699 650l156-157c7-6 7-17 0-23l-379-380-161-18c-21-2-39 16-37 38l18 161 379 379c7 6 17 6 24 0l0 0z m281 40l-84 85c-27 26-70 26-96 0l-61-62c-7-6-7-17 0-23l156-157c6-7 17-7 23 0l62 61c27 26 27 70 0 96z m-313-496v-177h-556v555h399c6 0 11 2 15 6l69 70c13 13 4 35-15 35h-496c-45 0-83-37-83-83v-611c0-46 38-83 83-83h611c46 0 84 37 84 83v274c0 18-23 28-36 14l-69-69c-4-3-6-9-6-14z" horiz-adv-x="1000" />

<glyph glyph-name="search" unicode="&#xe832;" d="M970 7l-171 171c20 34 15 80-15 110 20 45 30 100 30 150 0 226-180 411-405 411s-405-176-405-406c0-226 180-411 405-411 55 0 105 10 151 30 19-20 40-25 65-25 15 0 30 5 45 10l170-170c20-20 40-25 65-25s51 10 66 25c34 35 34 95-1 130z m-566 125c-175 0-315 145-315 320 0 171 140 320 315 320s316-140 316-320c0-174-141-320-316-320z m15 576c-155 0-280-125-280-280 0-25 15-40 40-40s40 15 40 40c0 110 90 200 200 200 25 0 40 15 40 40 0 20-20 40-40 40z" horiz-adv-x="1000" />

<glyph glyph-name="search_2" unicode="&#xe833;" d="M970 7l-171 171c20 34 15 80-15 110 20 45 30 100 30 150 0 226-180 411-405 411s-405-176-405-406c0-226 180-411 405-411 55 0 105 10 151 30 19-20 40-25 65-25 15 0 30 5 45 10l170-170c20-20 40-25 65-25s51 10 66 25c34 35 34 95-1 130z m-566 125c-175 0-315 145-315 320 0 171 140 320 315 320s316-140 316-320c0-174-141-320-316-320z m15 576c-155 0-280-125-280-280 0-25 15-40 40-40s40 15 40 40c0 110 90 200 200 200 25 0 40 15 40 40 0 20-20 40-40 40z" horiz-adv-x="1000" />

<glyph glyph-name="search-mdi" unicode="&#xe834;" d="M0 850h1000v-1000h-1000z m646-583h-33l-12 11c41 47 66 109 66 176 0 150-122 271-271 271s-271-121-271-271 121-271 271-271c67 0 129 25 176 66l11-12v-33l209-208 62 62-208 209z m-250 0c-104 0-188 83-188 187s84 188 188 188 187-84 187-188-83-187-187-187z" horiz-adv-x="1000" />

<glyph glyph-name="shopping-off-outline-mdi" unicode="&#xe835;" d="M875 0c0 0 0 0 0 0l-83 83v0l-667 663-54-54 100-100c-25-13-46-42-46-75v-500c0-46 38-84 83-84h584c12 0 21 4 33 9l8-9 75-75 55 54-88 88z m-667 17v500h42l71-71 429-429h-542z m292 708c71 0 125-54 125-125h-246l84-83h329v-329l83-84v413c0 46-37 83-83 83h-84c0 117-91 208-208 208-92 0-162-54-196-133l71-71c4 71 54 121 125 121z" horiz-adv-x="1000" />

<glyph glyph-name="shopping-outline-mdi" unicode="&#xe836;" d="M792 600h-84c0 117-91 208-208 208s-208-91-208-208h-84c-45 0-83-37-83-83v-500c0-46 38-84 83-84h584c46 0 83 38 83 84v500c0 46-37 83-83 83m-292 125c71 0 125-54 125-125h-250c0 71 54 125 125 125m292-708h-584v500h584v-500" horiz-adv-x="1000" />

<glyph glyph-name="socialmedia_c_facebook" unicode="&#xe837;" d="M500 833c-266 0-483-217-483-483s217-483 483-483 483 217 483 483-217 483-483 483z m0-944c-254 0-461 207-461 461s207 461 461 461 461-207 461-461-207-461-461-461z m38 597c0 21 14 25 23 25h60v92l-82 0c-91 0-112-68-112-111v-61h-52v-94h52v-240h111v240h74l10 94h-84v55z" horiz-adv-x="1000" />

<glyph glyph-name="socialmedia_c_instagram" unicode="&#xe838;" d="M500 833c-266 0-483-217-483-483s217-483 483-483 483 217 483 483-217 483-483 483z m0-944c-254 0-461 207-461 461s207 461 461 461 461-207 461-461-207-461-461-461z m115 716h-230c-77 0-140-63-140-140v-230c0-77 63-140 140-140h230c77 0 140 63 140 140v230c0 77-63 140-140 140z m99-369c0-55-45-100-100-100h-228c-55 0-100 45-100 100v228c0 55 45 100 100 100h228c55 0 100-45 100-100v-228z m-214 249c-74 0-134-61-134-135 0-74 60-134 134-134 75 0 135 60 135 134 0 75-60 135-135 135z m0-223c-48 0-88 40-88 88 0 49 40 88 88 88s88-39 88-88c0-48-39-88-88-88z m139 257c-16 0-30-13-30-30 0-16 14-30 30-30 17 0 30 14 30 30 0 17-13 30-30 30z" horiz-adv-x="1000" />

<glyph glyph-name="socialmedia_c_line" unicode="&#xe839;" d="M627 460h-33c-5 0-9-4-9-9v-120l-93 125c0 1 0 1-1 1 0 0 0 0 0 0 0 0 0 1 0 1 0 0 0 0 0 0 0 0-1 0-1 0 0 0 0 0 0 0 0 0-1 0-1 1 0 0 0 0 0 0 0 0 0 0 0 0 0 0 0 0-1 0 0 0 0 0 0 0 0 0 0 0-1 0 0 0 0 0 0 0 0 0 0 0-1 0 0 0 0 0 0 0 0 0-1 0-1 0 0 0 0 0 0 0 0 0 0 0 0 0 0 0 0 0-1 0h-32c-5 0-10-4-10-9v-202c0-5 4-9 10-9h32c5 0 9 4 9 9v120l93-125c1-1 2-2 3-2 0 0 0 0 0 0 0 0 0-1 0-1 0 0 0 0 1 0 0 0 0 0 0 0 0 0 0 0 0 0 0 0 0 0 1 0 0 0 0 0 0 0 0 0 0 0 0 0 1 0 2 0 3 0h32c5 0 9 4 9 9v202c0 5-4 9-8 9z m-225 0h-32c-5 0-10-4-10-9v-202c0-5 4-9 10-9h32c5 0 9 4 9 9v202c0 5-4 9-9 9z m-78-169h-89v160c0 5-4 9-9 9h-33c-5 0-9-4-9-9v-202 0c0-3 1-5 3-7 0 0 0 0 0 0 0 0 0 0 0 0 1-1 4-2 6-2h0 130c5 0 9 4 9 9v32c1 6-3 10-8 10z m482 169h-130 0c-2 0-4-1-6-2 0 0 0 0 0 0 0 0 0 0 0 0-2-2-2-4-2-7v0-202 0c0-3 0-4 2-6 0 0 0 0 0 0 0 0 0 0 0 0 2-2 4-3 6-3h0 130c5 0 9 4 9 10v31c0 5-4 10-9 10h-88v34h88c5 0 9 4 9 9v33c0 5-4 9-9 9h-88v34h88c5 0 9 4 9 10v32c1 4-4 8-9 8z m-306 373c-266 0-483-217-483-483s217-483 483-483 483 217 483 483-217 483-483 483z m0-944l0 0c-254 0-461 207-461 461s207 461 461 461 461-207 461-461-207-461-461-461z" horiz-adv-x="1000" />

<glyph glyph-name="socialmedia_c_youtube" unicode="&#xe83a;" d="M500 833c-266 0-483-217-483-483s217-483 483-483 483 217 483 483-217 483-483 483z m0-944c-254 0-461 207-461 461s207 461 461 461 461-207 461-461-207-461-461-461z m173 633h-346c-40 0-73-33-73-73v-198c0-40 33-73 73-73h346c40 0 74 33 74 73v198c0 40-34 73-74 73z m-222-255v185l140-92-140-93z" horiz-adv-x="1000" />

<glyph glyph-name="star-o" unicode="&#xe83b;" d="M447 789l-120-244-270-39c-48-7-67-67-32-101l195-189-46-269c-8-48 43-84 86-62l240 127 241-127c43-22 94 14 86 62l-47 269 195 189c35 34 16 94-32 101l-270 39-120 244c-22 43-84 44-106 0l0 0z" horiz-adv-x="1000" />

<glyph glyph-name="ttm-face" unicode="&#xe83c;" d="M704 63c-121-101-225-109-246-109h-4c-104 13-200 59-275 129-50 46-37 117-21 155 5 4 46 104 96 204 100 212 134 246 146 258 29 33 92 50 163 42 79-9 179-46 229-129 58-100 75-296 71-313-5-33-42-137-159-237z m-354 404c0 0 4-4 17-4 21-5 33 0 37 4-4 16-16 21-29 25-29 0-29-17-25-25z m375 112c-37 63-112 84-175 92-79 12-104-21-104-21-25-29-46-62-63-100l0 0c25-4 50-17 71-33 25-29 25-71 0-100-4-4-4-4-8-9-25-16-54-25-79-16-17 0-34 8-50 21-34-71-67-146-96-205l0 0c0 0-21-50 8-75 0 0 75-79 229-108 21 0 38 4 59 8 50 17 100 46 141 80 121 100 130 191 130 191 0 25-17 200-63 275l0 0z m-104-262c-21 0-42 4-63 12-62 25-87 71-83 104 4 21 17 38 33 46 42 29 88 17 113 9 54-17 100-63 96-105 0-20-13-37-29-50-21-12-42-20-67-16l0 0z m-17 108c-21 8-41 8-58 0 8-17 21-29 42-33 20-9 45-9 70 0-16 12-33 25-54 33l0 0z m-66-267l0 0c-9-20-38-33-75-37h-5c-29 0-62 8-91 17-67 25-125 83-104 129 8 21 33 33 70 37 34 0 63-4 92-16 58-25 129-84 113-130l0 0z m-142 67c-25 8-50 17-75 17 21-17 42-34 67-42s50-17 79-17c-21 17-46 34-71 42l0 0z" horiz-adv-x="1000" />

<glyph glyph-name="tag" unicode="&#xe83d;" d="M962 432l-376 375c-24 25-58 39-93 39h-361c-73 0-132-59-132-132v-361c0-35 14-69 39-94l375-375c25-25 59-38 93-38s68 13 94 38l361 362c51 51 51 134 0 186z m-67-120l-361-362c-15-14-39-14-54 0l-375 376c-8 7-11 17-11 27v361c0 21 17 38 37 38h362c10 0 19-4 26-11l376-376c15-14 15-38 0-53z" horiz-adv-x="1000" />

<glyph glyph-name="wallet" unicode="&#xe83f;" d="M881 722h-762c-65 0-119-54-119-119v-67-135-304c0-64 55-118 119-118h763c64 0 118 54 118 118v304 135 67c-3 65-54 119-119 119z m-762-71h763c27 0 47-21 47-47v-34h-858v33c0 27 20 48 48 48z m810-216h-858v67h858v-67z m-48-385h-762c-27 0-48 20-48 47v267h858v-267c0-27-24-47-48-47z m-448 263h-314c-21 0-34-17-34-34 0-20 16-34 34-34h317c20 0 34 17 34 34-4 17-17 34-37 34z m357-57c-51 0-94-44-94-95s44-94 94-94c51 0 95 44 95 94 0 51-44 95-95 95z m0-122c-13 0-24 10-24 24s11 24 24 24c14 0 24-11 24-24 0-10-10-24-24-24z" horiz-adv-x="1000" />

<glyph glyph-name="hamburger" unicode="&#xe840;" d="M0 0v100h1000v-100h-1000z m0 400h1000v-100h-1000v100z m0 300h1000v-100h-1000v100z" horiz-adv-x="1000" />

<glyph glyph-name="hamburger2" unicode="&#xe841;" d="M0 0h663v100h-663z m0 600h792v100h-792z m0-300h1000v100h-1000z" horiz-adv-x="1000" />

<glyph glyph-name="ttm-hi-logo" unicode="&#xe842;" d="M373 458c-1 0-7 1-14 1-12 0-30-4-39-26-11-23-24-46-40-68-10-15-35-16-46-16-8 0-17 1-22 1-1 0-72 17-110 66-43 56-55 148-53 181 1 30 11 88 74 146 64 60 130 63 142 63v3l1-3h3 1c4 0 85-2 148-64 0 0 21-21 9-59-19-48-44-106-46-111-21-46 9-76 9-76 3-2 62-59 70-67 3-3 4-4 4-4 0 0-1 0-2 0-1 0-2 0-4 0-10 4-84 32-85 33m107-81c13 0 31 25 32 28 9 18-2 29-4 31l-81 88c0 0-12 13-4 31 21 49 37 93 44 110l2 5 1 2c6 21 16 73-22 104-72 70-160 74-177 74-1 0-3 0-6 0h0c-22 0-97-5-172-75-21-19-89-90-93-180-2-39 10-132 65-205 48-64 137-82 138-82 3-1 15-3 30-3h2c28 0 60 4 82 33 12 16 25 36 34 58 4 9 11 13 19 13 6 0 11-3 11-3l76-25c4 0 13-4 23-4m488 19c-35 14-46 33-50 44 10 6 35 13 75 1 33-11 51-34 60-47-14-6-48-13-85 2m49 126c-31 10-91 22-141-12-18-12-38-35-39-59-1-45 25-103 104-133 22-8 48-13 75-13 28 0 57 6 81 22 24 16 38 38 39 62 2 51-50 110-119 133m-287-363c-36 15-65 35-84 53 24-1 56-7 92-21 38-15 68-35 89-53-27 1-61 7-97 21m42 109c-39 16-79 23-115 22-45-3-76-19-87-47-23-56 49-129 129-162 36-14 75-22 112-22h7c50 1 82 17 93 45 24 60-66 134-139 164m447 26c0-2-12-113-161-242-69-61-132-88-173-101-39-12-66-13-71-12-190 34-281 135-281 135-35 32-9 95-9 95l1 1c31 73 73 167 115 257 13-12 33-22 61-25 49-6 81 9 98 23 20 16 34 40 37 63 2 23-7 49-24 71-21 25-50 41-85 44h-1c32 62 60 109 77 125 0 0 27 45 126 29 72-12 167-41 213-119 56-95 77-316 77-344m-508 231c27-4 35-18 38-25-5-7-21-12-48-8-11 2-18 4-19 6-3 7-4 32 29 27m507 158c-62 107-186 154-281 162-86 8-160-13-198-55-14-14-54-58-180-326-61-129-113-252-116-259-20-45-35-134 28-195 151-145 339-160 339-160h4c24 0 153 6 302 134 147 128 189 256 191 305 1 20-16 270-89 394m-918-21c-10 0-18-8-18-18 0-10 8-18 18-18 10 0 18 8 18 18 0 10-8 18-18 18m-90-66h-57v55h-33v-144h33v61h57v-61h34v144h-34z m74 7h31v-96h-31z" horiz-adv-x="1307" />
</font>
</defs>
</svg>
